Great Alaskan Railroad Journeys S01E05 S Torrent Free Download

Seeders : 399   &   Leechers : 820      12-01-2019 (1 week)
Great Alaskan Railroad Journeys S01E05 S Torrent Download
Added: ago by ElsonRoa ***** in TV   1.1 GB   Hits : 14
Info Hash: CD60F0DEC9B246CCF7E1D0DB0C1CBC623B6E1C2F Download
Great Alaskan Railroad Journeys S01E05 S Torrent Download

Anonymous and Direct Download movies , software , shows...

Fast Safe Anonymous
movies, software, shows...

Torrent Description



Great Alaskan Railroad Journeys S01E05 Skagway to Carcross (1280x720p HD, 50fps, soft Eng subs)

Michael Portillo embarks on a second spectacular rail journey through Alaska to Canada, the White Pass and Yukon railway, ending in the Canadian town of Carcross. Arriving in Skagway by seaplane from railwayless Juneau, Michael heads first for Dyea and the Chilkoot trail, which the first gold prospectors hiked a hundred years ago to the Klondike. Among them, he discovers, was author Jack London, whose stories of sled dogs captured the spirit of the gold rush.

In the puppy pen of a sled dog training camp, a dog musher tells Michael how huskies helped to build Alaska and gives him a taste of how the dogs continue to work and race today. Boarding the 52-mile railway, built in 1898, which climbs 2,600 feet before dropping to the head of Canada's Lake Bennett, Michael looks forward to beautiful scenery on a railway laden with history. At the lake, Michael meets an indigenous guide to hear of the role of First Nations people in the stampede for gold. In Carcross, Michael explores the art of the First Nations and helps to carve a totem pole. Then he is invited to shake his tail feathers in a 'grouse' dance.

First broadcast: 11 January 2019
Duration: 30 minutes

Torrent dead? Request reseed at 1337x.to or torrentgalaxy.org - or ask at elsonroa at tutanota.com



Media info:
General
Format : MPEG-4
Format profile : Base Media
Codec ID : isom (isom/iso2/avc1/mp41)
File size : 1.07 GiB
Duration : 29mn 0s
Overall bit rate mode : Variable
Overall bit rate : 5 301 Kbps
Writing application : Lavf57.83.100

Video
ID : 1
Format : AVC
Format/Info : Advanced Video Codec
Format profile : [email protected]
Format settings, CABAC : Yes
Format settings, ReFrames : 4 frames
Codec ID : avc1
Codec ID/Info : Advanced Video Coding
Duration : 29mn 0s
Bit rate : 4 975 Kbps
Width : 1 280 pixels
Height : 720 pixels
Display aspect ratio : 16:9
Frame rate mode : Constant
Frame rate : 50.000 fps
Color space : YUV
Chroma subsampling : 4:2:0
Bit depth : 8 bits
Scan type : Progressive
Bits/(Pixel*Frame) : 0.108
Stream size : 1.01 GiB (94%)
Encoded date : UTC 1904-01-01 00:00:00
Tagged date : UTC 1904-01-01 00:00:00
Color range : Limited
Color primaries : BT.709
Transfer characteristics : BT.709
Matrix coefficients : BT.709

Audio
ID : 2
Format : AAC
Format/Info : Advanced Audio Codec
Format profile : LC
Codec ID : 40
Duration : 29mn 0s
Bit rate mode : Variable
Bit rate : 317 Kbps
Maximum bit rate : 327 Kbps
Channel(s) : 2 channels
Channel positions : Front: L R
Sampling rate : 48.0 KHz
Frame rate : 46.875 fps (1024 spf)
Compression mode : Lossy
Stream size : 65.8 MiB (6%)




Sharing Widget


No Comments For This Torrent . Be The First to Comment

You must Login to Comment . Click Here to Login

Menu 1

Some content in menu 1.

Great Alaskan Railroad Journeys S01E05 Skagway to Carcross (1280x720p (Size: 1.1 GB)
  Great Alaskan Railroad Journeys S01E05 Skagway to Carcross (1280x720p 1.1 GB
tracker name
udp://tracker.leechers-paradise.org:6969/announce
udp://zer0day.ch:1337/announce
udp://open.demonii.com:1337/announce
udp://tracker.coppersurfer.tk:6969/announce
udp://exodus.desync.com:6969/announce
µTorrent compatible trackers list

Relative Torrents

Torrent Name Size Age SEED LEECH
Avengers Infinity War (2018)[720p] - HDCm - Audios - [Tamil + Telugu + Hindi +
Posted by    Addison7412   in   Movies
1.3 GB 13 minutes 41 901
Kyze SN1 - Marathon (2019) [UK Hip-Hop] FLAC 16 Bit] - GazaManiacRG
Posted by    GazaManiacRG   in   Music
170.4 MB 16 minutes 454 339
Kyze SN1 - Marathon (2019) [UK Hip-Hop] MP3 320] - GazaManiacRG
Posted by    GazaManiacRG   in   Music
68.5 MB 16 minutes 623 584
Love & Debt (2018) [WEBRip] [1080p] [YTS [YIFY]
Posted by    YTSAGx   in   Movies
1.6 GB 19 minutes 830 353
[Erai-raws] Kakegurui 2nd Season - 03 [180p] mkv () - AniDex
Posted by    Sour456Gol   in   Anime
792.7 MB 20 minutes 649 200
Matita legno 12x Matita Bon Voyage HB Scuola Novità Scrittura legno bambiniWFIT | Fantasy / Sci-Fi | Philosophy of Life Essay